<?xml version="1.0" standalone="no"?>
<!DOCTYPE svg PUBLIC "-//W3C//DTD SVG 1.1//EN" "http://www.w3.org/Graphics/SVG/1.1/DTD/svg11.dtd" >
<svg xmlns="http://www.w3.org/2000/svg">
<metadata></metadata>
<defs>
<font id="handletterregular" horiz-adv-x="1014" >
<font-face units-per-em="2048" ascent="1638" descent="-410" />
<missing-glyph horiz-adv-x="508" />
<glyph unicode="&#xd;" horiz-adv-x="508" />
<glyph horiz-adv-x="0" />
<glyph horiz-adv-x="0" />
<glyph unicode=" "  horiz-adv-x="508" />
<glyph unicode="&#x09;" horiz-adv-x="508" />
<glyph unicode="&#xa0;" horiz-adv-x="508" />
<glyph unicode="!" horiz-adv-x="574" d="M1 120q-6 -38 23 -76q28 -36 66 -42q44 -7 78 13q30 18 40 50t-7 58q-19 28 -63 35q-42 4 -83 -3q-50 -10 -54 -35zM161 380q-4 -83 55 55q43 97 118 283q79 194 118 284q89 207 133 256q78 85 37 123q-25 22 -145 47q-46 9 -75 5q-44 -8 -29 -49q11 -34 0 -79 q-4 -14 -12 -40q-9 -26 -12 -39q-149 -592 -164 -684q-23 -130 -24 -162z" />
<glyph unicode="&#x22;" horiz-adv-x="672" />
<glyph unicode="#" horiz-adv-x="1336" />
<glyph unicode="$" />
<glyph unicode="%" horiz-adv-x="1610" />
<glyph unicode="&#x26;" horiz-adv-x="1044" d="M21 136q44 -122 190 -131q113 -6 218 64q49 33 176 155q6 -10 32 -73q30 -74 51 -115q76 -150 142 -121q0 2 -73 162q-76 165 -84 209q56 104 80 152q12 22 48 107q34 81 34 82l295 60l-2 9q22 74 -195 84q-49 2 -170 1q-93 -1 -116 4l-9 1l-21 -171l12 -9l153 13 q-131 -268 -136 -256q-24 54 -59 175q-44 153 -57 189q250 323 315 441q92 168 13 231q-72 59 -245 6q-67 -20 -200 -111q-149 -101 -138 -145q10 -43 87 -215q23 -52 -7 -99q-9 -14 -32 -42q-24 -30 -36 -47q-239 -367 -241 -372q-66 -124 -25 -238zM143 186q4 30 154 244 q149 212 164 216q7 1 124 -350q-57 -63 -151 -138q-116 -91 -171 -99t-92 34q-36 41 -28 93zM423 1121q72 149 285 214l-246 -354q-25 77 -39 140z" />
<glyph unicode="'" horiz-adv-x="346" />
<glyph unicode="(" horiz-adv-x="758" />
<glyph unicode=")" horiz-adv-x="758" />
<glyph unicode="*" horiz-adv-x="1024" />
<glyph unicode="+" />
<glyph unicode="," horiz-adv-x="394" d="M10 -238q91 8 249 230q69 96 87 164q21 79 -35 97q-148 49 -166 -66q-6 -34 0 -89q6 -52 4 -57q-10 -30 -75 -155q-63 -120 -64 -124z" />
<glyph unicode="-" horiz-adv-x="670" />
<glyph unicode="." horiz-adv-x="204" d="M5 96q-11 -28 2 -55q14 -28 45 -37q35 -11 78 8q29 13 41 43q11 28 1 55q-10 28 -38 38q-32 12 -77 -6q-39 -15 -52 -46z" />
<glyph unicode="/" horiz-adv-x="569" />
<glyph unicode="0" />
<glyph unicode="1" />
<glyph unicode="2" />
<glyph unicode="3" />
<glyph unicode="4" />
<glyph unicode="5" />
<glyph unicode="6" />
<glyph unicode="7" />
<glyph unicode="8" />
<glyph unicode="9" />
<glyph unicode=":" horiz-adv-x="557" />
<glyph unicode=";" horiz-adv-x="557" />
<glyph unicode="&#x3c;" />
<glyph unicode="=" />
<glyph unicode="&#x3e;" />
<glyph unicode="?" horiz-adv-x="748" d="M2 121q-15 -66 96 -110q55 -22 84 0q25 18 22 60q-3 41 -30 73q-30 36 -71 37q-39 1 -68 -17q-28 -17 -33 -43zM20 1172q4 -12 25 -40q23 -30 34 -55q24 -50 27 -55q15 -22 50 -35q39 -15 57 19q6 10 14 34q9 26 15 38q39 81 72 107q13 11 41 27q43 23 63 36 q68 42 119 48q71 7 33 -83q-14 -34 -149 -182q-150 -163 -181 -209q-82 -121 -124 -250q-61 -184 22 -253q74 -62 83 18q2 20 1 72q-1 45 3 57q35 116 145 231q35 36 193 154q121 90 166 173q68 124 4 248q-64 122 -203 151q-199 43 -445 -154q-77 -61 -65 -97z" />
<glyph unicode="@" horiz-adv-x="2019" />
<glyph unicode="A" horiz-adv-x="1103" d="M-11 326q-1 -14 -1 -28q0 -122 47 -238q60 -151 171 -206q17 -9 36 -9q114 0 281 310q60 112 223 488h161q1 -30 -38 -230q-37 -191 -37 -227q-3 -121 -3 -117q7 -60 45 -60q14 0 33 9q38 18 63 85q5 12 29 104q218 819 338 1069q45 94 46 87q-1 11 -84 44q-3 1 -109 10 q-97 9 -111 9h-2q-64 -10 -65 -89q0 -97 2 -94q-49 -63 -147 -238q-119 -215 -154 -270q-80 11 -129 11q-14 0 -26 -1q-17 -2 -59 -8q-37 -6 -60 -7q38 -48 97 -65q37 -11 123 -15q-6 -36 -189 -351q-185 -320 -211 -330q-34 14 -70 97q-32 74 -35 120q-2 29 -2 59 q0 178 72 368q9 25 28 70q15 38 21 53q16 47 -1 56q-95 48 -111 48h-1q-62 -49 -119 -225q-47 -145 -52 -289zM-10 3048q1 8 8 8h4v-8h-12zM783 734l202 354l5 -3l-71 -376zM946 3904l12 8h8q8 -1 8 -8v-4q0 -8 -12 -8q-16 6 -16 12z" />
<glyph unicode="B" horiz-adv-x="1105" d="M10 19q6 -66 64 -66q8 0 16 1q-4 0 -4 8q0 65 214 649q101 277 193 406q136 189 359 266q-13 -63 -193 -282q-165 -202 -198 -223q-19 -13 -21 -51q-1 -7 -1 -14q0 -28 10 -58q13 -38 33 -52q22 -16 45 8q91 93 281 159q73 26 125 34q53 8 51 -6q-12 -99 -234 -332 q-192 -201 -278 -255q-82 -51 -114 -51h-4q-23 3 -44 49q-12 28 -20 25q-1 -1 -11 -7q-9 -6 -18 -9q-1 -10 -12 -60q-10 -47 -10 -68q0 -61 55 -61q10 0 21 2q124 22 235 77q258 128 379 248q48 46 134 177q91 140 101 190q1 8 1 16q0 45 -42 90q-46 49 -102 58q-24 4 -50 4 q-42 0 -92 -10q-21 -4 -69 -15q-45 -11 -70 -15q14 33 81 103q97 100 118 126q63 76 73 133q2 11 2 22q0 57 -57 100q-46 36 -108 36q-76 0 -176 -56q-156 -88 -222 -207q1 8 32 125q17 67 17 102q0 12 -2 21q-5 17 -66 48q-51 26 -85 26q-11 0 -21 -3q-36 -10 -35 -40 q0 -5 4 -25q3 -16 2 -25l-101 -347q-25 -63 -98 -385q-82 -359 -82 -464q0 -9 -4 -57q-3 -27 -3 -47q0 -10 1 -18z" />
<glyph unicode="C" horiz-adv-x="1019" d="M2 439q5 -36 17 -66q26 -22 51 -22q17 0 32 10q15 9 43 36q40 37 58 52q8 7 92 81q74 65 77 67l3 -101q2 -104 4 -119q17 -156 45 -220q44 -101 164 -141q46 -16 85 -16q67 0 115 45q14 13 181 231q128 166 132 194q4 7 2 15q-8 27 -31 27q-5 0 -85 -93l-283 -281 q-24 -17 -46 -18q-33 0 -60 41q-32 46 -48 127q-20 96 -20 186q0 213 111 387q179 281 294 407l-82 -414q2 -1 4 -1q40 0 135 181q20 38 56 93q48 75 55 86q53 88 53 150v10q-3 31 -91 51q-49 11 -83 11q-25 0 -41 -6l-41 -117q-15 6 -30 27q-21 26 -25 30q-10 9 -23 9 q-25 0 -62 -36q-166 -164 -306 -459q-30 -63 -47 -79q0 -1 -75 -54l-301 -208q-31 -26 -31 -77q0 -12 2 -26z" />
<glyph unicode="D" horiz-adv-x="1821" d="M4 71q0 -42 37 -64q2 -1 19 -1q65 0 343 18q182 12 715 83q225 30 347 66q216 63 291 173q65 96 65 219q0 60 -15 125q-40 170 -162 321q-105 131 -256 241q-170 124 -315 156q-75 17 -216 22h-2q-61 0 -72 -106q-2 -26 -2 -47q0 -61 19 -84q16 -21 37 -13q6 2 18 10 q14 8 19 11q13 6 35 6q27 0 66 -9q72 -16 90 -40q1 -17 -52 -172q-61 -175 -66 -197q-71 -282 -72 -426q0 -83 -9 -94t-86 -25q-21 -4 -86 -20q-52 -13 -87 -17q-61 -6 -178 -26q-130 -22 -180 -29q-18 -2 -99 -6q-67 -2 -92 -10q-54 -14 -54 -65zM936 279q11 86 88 271 q31 74 106 250q59 136 68 161q26 70 31 76q7 7 18 7q17 0 45 -18q24 -15 197 -188q71 -70 141 -229q18 -42 18 -73q0 -32 -19 -51q-21 -21 -129 -60q-68 -24 -294 -85q-227 -61 -265 -61h-5z" />
<glyph unicode="E" horiz-adv-x="1176" d="M4 451q21 -171 155 -303q37 -37 105 -77q103 -62 191 -68q47 -3 90 -3q175 0 287 52q141 65 151 71q78 45 122 117q31 52 40 181q1 20 1 36q0 94 -43 94q-5 0 -11 -1q-6 -8 -5 -31q0 -19 -26 -42q-72 -63 -207 -132q-117 -60 -361 -94q-26 -3 -52 -3q-73 0 -139 27 q-86 35 -129 102q-31 48 -30 97q0 23 6 47q24 82 125 147q98 62 330 136q226 73 347 84q54 4 54 62q0 34 -19 87q-12 31 -29 32q-5 0 -17 -2q-13 -2 -20 -2q-10 1 -42 12q-37 13 -45 15q-181 45 -228 57q-122 33 -122 42q0 3 11 4q212 15 240 16h23q105 0 249 -32h-1 q0 -7 97 -99q74 6 74 95q0 61 -31 142q-38 98 -40 101q-10 22 -19 22h-2q3 1 -36 -21q-35 -20 -82 -28l-750 -165q-27 -36 -27 -63q0 -21 16 -37q28 -28 91 -28h12q25 1 49 1q232 0 416 -70l-339 -119q-227 -96 -305 -155q-128 -96 -128 -252q0 -25 3 -52z" />
<glyph unicode="F" horiz-adv-x="705" d="M8 1338q-8 -37 -8 -66q0 -47 21 -72q27 -32 112 -44q99 -13 158 -13q40 0 62 6q36 -71 37 -71v1q2 -10 -21 -92q-7 -26 -22 -97q-13 -63 -22 -90q-17 4 -44 6q-25 3 -35 5q-33 7 -61 38q-8 -16 -8 -41q0 -46 27 -124q-5 0 32 10q10 3 21 3q21 0 44 -10l-56 -346 q-1 -25 -7 -91q-5 -56 -6 -89q-1 -23 -7 -56q-8 -40 -8 -48q0 -40 50 -57l221 680l407 -22q3 41 -153 77q-217 50 -213 48q9 35 51 148t52 150l-134 52q141 -21 302 -21q64 0 131 3q237 13 284 57q-7 6 -40 18q-36 13 -52 12q-13 -1 -28 -1q-37 0 -82 9q-432 93 -701 139 q-44 7 -110 25q-75 21 -106 27q-8 2 -34 32q-4 4 -8 4q-11 0 -24 -29q-14 -32 -22 -70z" />
<glyph unicode="G" horiz-adv-x="768" d="M34 318q32 -131 94 -220q55 -79 155 -99l270 377q2 -21 2 -45q0 -181 -99 -528q104 52 166 284q8 31 77 400q71 378 74 368q-8 8 -32 8q-48 0 -159 -32q-160 -45 -160 -85q0 -2 1 -5q11 -14 38 -20q25 -6 45 -38q42 -69 46 -115q1 -15 -1 -46q-1 -25 -1 -60 q0 -42 -128 -226t-162 -193q-80 148 -93 287q-3 29 -3 61q0 131 48 296t105 255q117 186 175 210q6 -68 13 -89q10 -32 38 -52q2 -2 5 -2q19 0 59 69q14 23 35 63q20 39 25 46q201 339 230 455q-44 47 -176 58q-16 1 -28 1q-32 0 -41 -9q-8 -8 -30 -84q-75 -253 -84 -269 q-56 104 -103 104q-4 0 -8 -1q1 1 -16 -25t-37 -44q-35 -31 -68 -68q-183 -211 -268 -559q-28 -116 -28 -227q0 -102 24 -201z" />
<glyph unicode="H" horiz-adv-x="953" d="M9 815q-5 -8 -5 -25q0 -29 16 -82q12 -36 29 -39q9 -2 46 12q40 14 148 14q34 0 75 -1q-61 -337 -67 -442q-3 -43 -3 -90q0 -133 23 -301l39 41q3 13 12 83q8 76 15 110q94 480 145 597l234 4q-111 -388 -117 -559q-1 -19 -1 -36q0 -50 7 -76q10 -40 31 -4q48 77 85 195 q31 97 73 220q10 30 90 244q34 5 71 13q36 7 50 20q18 17 16 50q-11 -4 -25 -11q-13 -7 -20 -9q-21 -7 -60 3q6 37 93 280q86 236 90 283q-32 13 -71 13q-8 0 -15 -1q-94 -6 -132 -100q-128 -424 -137 -447l-240 17q4 18 111 327q95 274 95 300q0 13 -67 12q-22 0 -51 -1 q-117 -6 -127 -58q-61 -312 -125 -571z" />
<glyph unicode="I" horiz-adv-x="657" d="M3 599q10 -84 61 -168q43 -71 87 -71q22 0 45 18q59 47 59 74q0 8 -6 14q-7 8 -32 21q-26 13 -36 24q-50 53 -50 148q0 13 1 28q7 111 138 277q113 142 223 218q-99 -306 -135 -644q-14 -126 -14 -224q0 -202 59 -282q24 -32 63 -32q16 0 34 5q63 18 85 73q27 65 55 242 q20 120 20 179q0 34 -7 48q-13 -22 -84 -234q-62 -189 -89 -199q-10 42 -10 98q0 106 36 262q33 146 92 308q9 23 51 126q45 113 71 180q82 215 82 277q0 6 -1 11q-30 4 -149 43q-51 16 -76 16q-6 0 -11 -1q-28 -7 -25 -30q1 -5 6 -23q4 -14 4 -23q0 -24 -49 -56 q-12 -8 -41 -24q-24 -14 -32 -21q-184 -138 -296 -287q-132 -175 -132 -327q0 -22 3 -44z" />
<glyph unicode="J" horiz-adv-x="783" d="M5 257q-2 -20 -2 -51q0 -114 32 -369q16 -127 39 -186q21 -54 95 -71q24 -6 47 -6q51 0 98 28q134 78 218 243q51 98 115 314q42 141 190 732q143 575 146 582q6 19 6 27q0 4 -1 6q-3 5 -32 13q-3 1 -10 1q-25 0 -97 -16q-103 -22 -129 -51q-83 -93 -292 -164 q-18 -6 -178 -56q-154 -48 -155 -48q-16 -11 -16 -36q0 -39 38 -114q21 -42 92 -153q42 16 203 110q191 112 257 176q-194 -1093 -257 -1241q-71 -169 -196 -300q-8 57 -8 126q0 157 43 373l36 181q4 28 4 46q0 27 -10 29q-74 16 -190 17h-2q-45 0 -65 -48q-12 -28 -19 -94z " />
<glyph unicode="K" horiz-adv-x="844" d="M-10 1060q9 -192 89 -266q11 16 6 35q-6 22 -3 33q15 49 131 189q115 139 146 146q-4 -16 -84 -281q-78 -258 -84 -298q-1 -10 -9 -52q-11 -55 -17 -88q-23 -129 -29 -222q-3 -39 -3 -72q0 -185 87 -185q15 0 32 5q4 11 18 106q18 123 34 205q60 311 157 472l176 -12 q-8 -28 -27 -86q-27 -84 -34 -108q-47 -145 -71 -248q-33 -142 -33 -242q0 -121 49 -178q41 -48 84 -48q39 0 80 39q49 46 109 163q22 43 72 126q56 93 76 130q6 10 -12 10q-17 -1 -26 -10l-275 -294q5 19 16 104q11 80 29 140q122 397 122 492q0 7 -1 13q-7 60 -72 89 q-16 7 -112 31q15 33 227 205q210 170 219 200q-15 18 -92 28q-41 6 -62 6q-17 0 -23 -4q-5 -5 -30 -68q-23 -60 -42 -75q-15 -12 -164 -154q-142 -135 -166 -151q16 44 44 114q37 91 45 114q16 39 50 111q36 74 48 107q21 53 21 65q0 39 -109 39q-22 0 -47 -2 q-57 -3 -61 -5q-25 -8 -37 -45q-14 -42 -26 -51q-5 -4 -20 -11q-19 -8 -34 -16q-271 -151 -362 -245z" />
<glyph unicode="L" horiz-adv-x="797" d="M23 921q-23 -27 -23 -49q0 -25 28 -44q76 -50 155 -69q4 5 -4 28q-7 23 1 41q37 77 112 177q119 157 174 184q-13 -44 -44 -144q-30 -95 -44 -147q-9 -35 -77 -300q-61 -241 -77 -298q-27 -99 -37 -150q-8 -45 -8 -80q0 -44 13 -70h4q116 0 348 113q191 93 245 140 q51 43 64 88q3 12 3 22q0 41 -49 64q-2 -4 -6 -16q-3 -13 -9 -23q-20 -34 -88 -73q-435 -253 -423 -251q20 93 142 464q135 411 201 542q149 296 149 298q5 30 -59 48q-17 5 -91 18q-6 1 -13 1q-31 0 -61 -25q-16 -14 -54 -62q-10 -13 -221 -196q-213 -186 -251 -231z" />
<glyph unicode="M" horiz-adv-x="1435" d="M-4 866q5 -61 94 -154q77 -80 132 -80q14 0 26 5l-14 76q-5 30 -5 57q0 39 11 71q86 243 313 505q-2 -20 -40 -151q-46 -160 -48 -168q-74 -287 -99 -768q-2 -36 -12 -101q-5 -34 -5 -55q0 -9 1 -15q8 -58 122 -97q10 31 18 89q47 350 197 690q37 83 141 248 q117 184 166 217q-108 -515 -108 -512q-13 -101 -13 -221q0 -42 2 -86q6 -174 47 -174q14 0 33 22q43 49 66 237q11 93 72 231q91 205 251 326q-10 -46 -175 -456q-65 -160 -82 -354q-5 -59 -6 -120q-1 -54 -1 -53v-6q0 -42 85 -117q54 -47 93 -47q30 0 52 28q35 46 105 257 q65 193 65 252q0 7 -1 13l-238 -384q-14 9 -14 41q0 109 158 490q34 82 121 249q12 22 38 61q30 45 40 62q40 68 40 125v12q-42 68 -125 100q-37 15 -68 15q-48 0 -84 -35l-215 -201q4 12 81 174q43 90 43 128q0 12 -4 19q-61 107 -116 126q-8 3 -17 3q-34 0 -76 -46 q-6 -15 -105 -132q-108 -129 -127 -157q-86 -124 -189 -334l-1 -1q-7 0 108 331q119 346 178 417q7 7 30 18q18 8 18 22q0 26 -123 71q-107 39 -139 39q-4 0 -6 -1q-42 -9 -47 -44q-10 -74 -12 -77q3 7 -85 -101q-205 -249 -361 -392q-26 -25 -87 -98q-46 -54 -99 -89z" />
<glyph unicode="N" horiz-adv-x="1167" d="M3 782q-4 -8 -4 -18q0 -35 45 -87q55 -63 108 -82q10 160 128 337q99 146 131 184q67 80 168 139q-1 -4 -46 -146q-54 -166 -97 -314q-193 -668 -193 -866q0 -14 18.5 -14t56.5 14q39 15 80 36q145 527 200 612q239 365 436 492q-1 -1 -67 -179q-72 -197 -117 -346 q-79 -265 -79 -402q0 -118 59 -141q13 -5 27 -5q91 0 235 203q52 73 109 170q56 96 53 91q17 25 17 41q-2 20 -27 43l-314 -307q1 32 192 414q195 390 199 412q5 23 5 44q0 99 -115 138q-44 16 -76 16q-22 0 -38 -8q-12 -6 -90 -78q-26 -24 -84 -71q-58 -48 -86 -74 q-8 -7 -84 -86q-68 -71 -73 -73q-5 3 45 194q51 195 68 228q19 36 19 64q0 41 -41 65q-21 12 -111 32q1 -5 1 -9q0 -33 -45 -60q-269 -157 -264 -152q-251 -216 -349 -451z" />
<glyph unicode="O" horiz-adv-x="1309" d="M5 359q-4 -5 -4 -14q0 -20 20 -60q36 -70 86 -79q7 -1 15 -1q37 0 88 27q18 10 113 73q71 48 117 63q82 -184 130 -254q35 -49 97 -82q62 -32 120 -32h3q131 3 236 95q74 66 162 209q70 115 122 349q26 116 26 207q0 181 -100 268q-43 38 -59 40h-3q-19 0 -72 -22 q24 44 27 98v11q0 98 -103 142q-19 9 -44 21q-22 10 -29 13q-10 4 -17.5 4.5t-13.5 -4.5q-5 -5 -31 -45q-32 -50 -74 -100q-278 -330 -364 -635q-12 -38 -40 -147q-79 -51 -168 -73q-160 -39 -172 -43q-62 -21 -68 -29zM610 485q6 21 178 175q181 161 231 271q61 130 61 139 q0 1 -1 0q17 13 46 5q31 -8 59 -35q70 -67 70 -192v-7q-2 -173 -99 -364q-101 -199 -141 -243q-74 -83 -138 -108q-29 -11 -58 -11q-55 0 -106 42q-56 45 -88 154q-20 68 -20 120q0 30 6 54zM718 768q28 83 192 278q42 49 113 130q52 59 56 65q-2 -36 -57 -135 q-52 -92 -85 -127q-167 -182 -219 -211z" />
<glyph unicode="P" horiz-adv-x="802" d="M0 938v-8q0 -31 14 -54q15 -24 89 -85q11 37 49 82l253 253q-138 -288 -169 -431q-20 -95 -31 -320q-4 -66 -6 -151q-3 -74 -3 -78q-18 5 -33 5q-53 0 -74 -60q-14 -38 -14 -64q0 -15 5 -27q1 0 47 8q48 9 56 9q29 2 65 2q72 0 174 -8q18 -1 24 1q10 3 14 16q5 23 -16 50 l-176 53q78 503 148 615q55 88 161 214q126 150 192 186q-7 -60 -41 -179q-45 -161 -95 -229q-49 -66 -163 -163l-113 -96q3 -11 21 -11q32 0 111 39q34 16 90 47q49 26 57 30q33 13 135 82q110 74 124 99q20 35 50 270q18 138 18 206q0 53 -11 64q-24 23 -91 34 q-34 6 -62 6q-22 0 -39 -4q11 -17 11 -66v-8q-2 -63 -31 -83q-65 -48 -117 -100q-70 -72 -120 -135q-13 -15 -53 -73q-35 -51 -51 -68q-1 2 -1 4q0 24 49 135q13 31 34 70q28 50 36 67q20 40 80 121q60 80 80 122q6 13 6 28q0 18 -9 39q-18 42 -53 48q-4 1 -8 1 q-28 0 -46 -30q-31 -54 -31 -55q-21 -19 -95 -62q-84 -50 -106 -66q-234 -170 -310 -236q-22 -18 -25 -56z" />
<glyph unicode="Q" horiz-adv-x="1614" d="M21 127q72 -92 87 -94h1q22 0 72 91q63 113 223 251q146 126 198 132q-1 -5 -1 -12q0 -37 28 -141q50 -186 166 -284q88 -73 193 -73q56 0 118 21q91 31 116 47q110 68 108 70q96 -112 156 -341q59 -223 65 -228q17 5 30 59q15 60 15 142q-1 220 -102 430q-24 48 -43 78 q61 87 80 136q66 171 66 299q0 123 -61 206q-55 75 -122 93q-29 7 -48 0q-20 -7 -24 -27q-4 -18 27 -32q53 -23 50 -21q33 -22 70 -90q43 -80 43 -162q0 -45 -13 -91q-16 -59 -109 -233q-2 1 -50 85q-50 88 -90 122q-123 -19 -178 -62q-60 -47 -92 -115q24 6 48 6 q33 0 64 -11q42 -16 68 -45q92 -102 99 -115q-138 -113 -256 -113h-2q-106 1 -176 89q-66 83 -78 210q-3 27 -3 54q0 100 38 193q23 55 94 104q15 11 62 40q40 24 62 40q190 145 219 186q94 133 94 241q0 30 -7 59q-10 40 -95 91q-36 23 -64 23q-4 0 -8 -1q-29 -3 -65 -37 q-272 -254 -381 -445q-61 -107 -99 -242q-609 -378 -609 -537q0 -26 16 -46zM1044 895q5 13 146 171q139 157 148 163q3 3 6 3q9 0 9 -29q0 -13 -2 -32q-12 -37 -28 -53q2 2 -44 -35z" />
<glyph unicode="R" horiz-adv-x="1091" d="M5 680q9 -14 57 -42q33 -18 74 -29q27 -8 45 -8q16 0 26 6q-11 34 -12 29q21 135 115 305q81 146 113 162q1 -2 -43 -211q-64 -304 -64 -633q0 -79 4 -159q-9 -2 -106 -42q-56 -24 -81 -24q-10 0 -15 4l78 -128h2q29 0 111 55q111 73 116 75q200 99 217 134q-27 -4 -53 1 q-18 4 -50 -7q-58 -20 -107 -30q0 75 48 234q51 165 82 201l225 -473q6 -11 13 -49q4 -24 53 -37q27 -7 48 -7q13 0 24 3q38 10 52 38q8 17 16 69q17 121 89 346q64 202 64 203q-37 -19 -146 -238q-47 -96 -121 -278q-74 74 -190 464q6 13 46 54q43 44 49 54q76 114 127 233 q40 92 40 141q0 58 -55 58q-7 0 -15 -1q-32 -4 -151 -105q-150 -127 -291 -605q0 10 -1 19q0 232 183 584q132 254 134 261q5 19 -24 46q-27 25 -71 46q-63 31 -100 31q-25 0 -37 -14q-2 -2 -6 -45q-4 -37 -57 -73q-178 -124 -304 -294q-40 -54 -141 -257q-15 -29 -15 -48 q0 -11 5 -19zM613 700q27 66 152 271q6 8 11 15l8 16q6 -12 6 -28q0 -62 -83 -190q-16 -22 -41 -43q-26 -22 -22 -17q-7 -9 -31 -24z" />
<glyph unicode="S" horiz-adv-x="786" d="M12 843q0 1 -1 1t-1 -8q0 -60 56 -587q17 -163 61 -279q38 -102 56 -117q55 -46 138 -46h7q158 169 207 228q215 258 222 365q0 6 1 13q0 146 -199 354q-117 123 -135 154q-12 21 -12 45q0 26 15 55q17 35 45 60l-18 -130q19 -26 47 -10q31 17 50 76q7 20 105 213 q92 183 92 200l-213 77q2 -36 2 -70q0 -163 -51 -289l-194 87q0 1 -13 -13q-15 -16 -27 -34q-39 -58 -44 -119q-1 -8 -1 -16q0 -106 97 -236q24 -32 87 -107q53 -62 73 -93q53 -84 53 -170q0 -10 -1 -20q-4 -42 -48 -195q-85 -296 -138 -363q-78 40 -78 158q0 10 1 20 q15 261 15 256q-11 389 -49 492q-94 41 -207 48z" />
<glyph unicode="T" horiz-adv-x="811" d="M2 1266q6 -102 53 -102q6 0 13 2q15 4 50 24q31 17 44 18q231 16 386 16q104 0 174 -7l-270 -1062q-47 5 -77 12l2 -153l21 -3q32 -11 76 -11t99 11q126 24 154 89l-136 31q-2 6 -2 18q0 90 138 533q155 497 189 526q64 2 113 2q99 0 139 -8q51 -10 92 -25q37 -13 43 -14 h2q23 0 110 50q102 59 117 88q2 5 2 9q0 17 -40 22q-26 3 -89 3h-34q-39 -1 -68 -1q-44 0 -67 2q-1119 92 -1159 123q-17 13 -31 13q-29 0 -40 -64q-6 -36 -6 -84q0 -27 2 -58z" />
<glyph unicode="U" horiz-adv-x="1371" d="M0 617q0 -24 63 -54q-2 1 79 -51q44 -28 70 -28q6 0 11 1q9 11 45 138q36 129 74 172q194 220 221 235q-12 -87 -46 -230q-38 -165 -49 -225q-19 -108 -19 -207q0 -143 40 -265q32 -98 90 -98q67 0 169 134q55 72 140 213q80 132 97 152q-7 -329 -9 -329v1 q14 -90 57 -140q31 -36 69 -36q30 0 64 22q68 44 162 192q99 156 97 232l-16 20l-271 -378l-15 11q-11 25 -11 70q0 148 113 517q6 20 49 136q33 90 40 130q2 14 2 28q0 52 -31 109q-42 74 -104 74h-9q-26 -12 -109 -258q-95 -281 -115 -318q-228 -434 -316 -503 q-20 32 -20 110q0 99 33 273q54 282 112 395q112 222 149 329q7 21 22 50q21 41 23 44q10 23 10.5 41t-10.5 30q-54 65 -165 77q-15 2 -27 2q-42 0 -51 -19q-4 -7 -11 -37q-8 -33 -18 -59q-14 -36 -124 -128q-46 -39 -141 -113q-94 -74 -141 -114q-168 -141 -234 -266 q-39 -73 -39 -82z" />
<glyph unicode="V" horiz-adv-x="802" d="M0 570q0 -29 35 -58q7 -5 52 -49l44 -43q29 8 41 66q18 93 16 87q45 121 88 193q141 241 215 312q-7 -73 -43 -281q-30 -179 -35 -292q-2 -64 -2 -121q0 -242 41 -362q7 -21 21 -21q29 0 87 97q63 107 184 378q312 695 374 778q10 13 10 31q0 32 -31 80q-45 70 -66 70 q-36 -1 -132 -184q-174 -331 -364 -986h-1h-2q-12 0 -12 56q0 58 13 175q20 175 37 264q17 87 64 248q11 35 49 111q37 74 41 92l-196 67l-3 -9q-7 -11 -3 -15q6 -6 6 -4q2 -10 -58 -82q-17 -20 -94 -99q-25 -26 -181 -203q-140 -161 -167 -221q-28 -60 -28 -75z" />
<glyph unicode="W" horiz-adv-x="1603" d="M0 409q-2 -37 58 -58q1 -1 45 -18q33 -13 56 -20q36 -11 60 -11q23 0 35 10l34 155q34 156 83 216q119 142 209 277q-6 -63 -45 -226q-34 -147 -38 -252q-2 -44 -2 -83q0 -320 108 -381q24 -14 47 -14q57 0 104 85q19 33 49 109q30 74 45 100v-1q-2 0 178 396 q1 -2 3 -102q3 -124 11 -215q27 -313 117 -357q37 -18 68 -18q38 0 64 29q14 16 70 136q310 656 353 854q32 143 34 171q3 23 2 44q0 71 -28 123q-40 71 -151 72h-4q-104 0 -131 -52q43 -32 43 -145q0 -155 -82 -464q-71 -266 -162 -517q-31 10 -31 135q0 60 7 146 q18 220 45 325q71 276 71 275q-2 46 -80 97q-55 35 -93 35q-16 0 -29 -6q-1 -5 -23 -135q-15 -88 -45 -145q-37 -67 -190 -381q-121 -247 -188 -349q-9 23 -9 62q0 105 64 325q80 277 149 391q76 127 93 176q15 44 15 82q0 62 -40 107q-11 13 -75 40q-62 25 -83 28 q-20 2 -32 2t-17 -2q-8 -4 -6 -22q1 -9 1 -17q0 -48 -30 -85q-79 -96 -236 -262q-181 -192 -243 -262q-147 -169 -196 -309z" />
<glyph unicode="X" horiz-adv-x="1197" d="M0 509q3 -13 90 -48q61 -25 93 -25q16 0 25 6q6 5 20 85q16 90 29 120q23 55 109 194q96 158 122 163q3 -2 83 -143q81 -144 81 -150q0 -15 -80 -131q-23 -33 -62 -89q-33 -46 -38 -54q-167 -254 -245 -523q-6 -22 -6 -46q0 -29 9 -61q12 -39 31 -39q12 0 26 14 q0 -1 -9 34q-3 12 -3 25q0 27 12 61q59 163 159 342q199 360 261 371q47 -31 121 -226q53 -143 53 -217q0 -33 -10 -51l-89 -2q-9 -33 -9 -57q0 -50 38 -67q22 -10 91 -10q21 0 46 1q252 9 281 38v5q0 90 -242 92q0 -1 -3 70q-2 74 -5 90q-16 95 -79 226q-77 161 -83 180 q-1 4 -1 8q0 51 147 216q133 148 212 212q100 81 114 99q29 36 29 69t-29 65q-55 59 -74 72q-9 7 -16 7t-12 -8q-3 -5 -8 -20q-8 -20 -12 -29q-17 -42 -48 -73q-86 -87 -194 -231q-124 -167 -179 -228q-10 2 -67 141q-62 148 -65 208q-3 41 -2 67q0 35 4 43q2 3 8 4q5 1 7 7 q-83 47 -148 48h-2q-74 0 -74 -74q0 -13 2 -27q9 -58 25 -102q14 -40 14 -45q0 -19 -90 -124q-38 -44 -193 -250q-161 -216 -165 -233z" />
<glyph unicode="Y" horiz-adv-x="834" d="M13 -278q8 -91 32 -108q44 -29 95 -29q66 0 144 49q86 55 128 114q123 170 334 693q198 492 222 642q4 21 13 66q9 42 12 65q2 15 9 35q7 22 8 28q1 4 1 8q0 22 -23 41q-19 16 -59 23q-16 3 -28 3q-22 0 -34 -10q-6 -6 -28 -107q-22 -103 -52 -132q-81 -81 -80 -80 q-73 -77 -151 -166q-14 -16 -74 -101q-56 -79 -62 -84q-3 19 124 389q123 362 123 372q0 7 -57 7h-27q-88 -2 -113 -34q-74 -92 -171 -181q-100 -93 -156 -161q-90 -110 -111 -235q-2 -12 -8 -37q-6 -22 -7 -32q-4 -32 25 -47q43 -21 143 -28q2 11 2 24q0 24 -7 58 q-6 29 -6 54q0 21 4 39q26 130 59 175q31 42 104 121q85 93 109 102q-29 -97 -86 -416q-49 -276 -49 -320q0 -6 1 -8q7 -12 46 -23q37 -11 54 -9q3 3 36 69q37 74 41 80v-1l89 149q19 31 103 129q87 102 110 117q-20 -91 -186 -530q-195 -516 -306 -694q-35 -56 -93 -105 q-41 -35 -65 -35q-23 0 -32 31q-28 96 -28 188q0 55 10 108q9 47 52 140q15 32 48 52q41 25 47 32q-91 -9 -150 -98q-49 -75 -70 -194q-12 -69 -12 -134q0 -32 3 -64z" />
<glyph unicode="Z" horiz-adv-x="1124" d="M0 179q0 -40 36 -82q83 -97 213 -97q50 0 144 9q102 11 145 12q454 12 531 12q17 0 16 -1l6 255q-148 -70 -148 -72h1q-29 -6 -95 -6q-76 0 -202 8q-92 6 -171 6q-128 0 -221 -16h-1q0 7 135 129q34 31 118 106q70 62 93 83q70 64 124 126q49 55 59 64h4q96 0 255 45 q22 46 21 61l-213 -13q0 1 93 130q95 134 111 161q41 71 103 146q43 53 43 73v3q-1 5 -10 26q-10 22 -15 46q-5 26 -74 35q-30 4 -57 4q-18 0 -35 -2q-16 -1 -52 5q-19 4 -30 4q-8 0 -13 -2q-18 -6 -27 -28q-11 -25 -26 -34q-35 -21 -453 -50q-17 -1 -88 -2q-75 -1 -120 -3 q-153 -8 -179 -45l99 -304q27 29 41 66q15 40 23 50q39 49 256 96q49 10 209 40q128 23 209 44l-234 -439l-219 5l-111 -67l7 -29l225 -15q-1 -26 -131 -163q-112 -116 -167 -163q-125 -106 -180 -140q-48 -29 -48 -77z" />
<glyph unicode="[" horiz-adv-x="758" />
<glyph unicode="\" horiz-adv-x="569" />
<glyph unicode="]" horiz-adv-x="758" />
<glyph unicode="^" />
<glyph unicode="_" horiz-adv-x="1024" />
<glyph unicode="`" horiz-adv-x="1024" />
<glyph unicode="a" horiz-adv-x="602" d="M4 138q11 -116 81 -135q11 -3 22 -3q58 0 108 87q24 41 69 146q40 94 73 144l1 -4q3 -4 3 -29q0 -20 -2 -52q-2 -44 -2.5 -79t2.5 -59q12 -150 105 -150q21 0 46 8q44 14 118 162q60 121 60 172q0 13 -4 21l-41 24q-6 -3 -123 -207q-13 41 -12 97q0 89 32 216 q55 212 55 265v7l2 12l-143 23l-60 -199q-9 -38 -75 -172q-133 -267 -189 -297q-3 29 -3 59q0 127 61 273q65 158 176 285q74 86 78 132v8q0 57 -85 113q-12 8 -25 8q-67 0 -181 -187q-84 -136 -124 -333q-27 -134 -27 -259q0 -49 4 -97z" />
<glyph unicode="b" horiz-adv-x="598" d="M12 492q-6 -128 -6 -207q0 -92 8 -118q20 -67 67 -117q46 -50 95 -50q10 0 21 2q84 19 207 161q91 105 159 219q67 113 88 313q4 42 4 78q0 164 -89 197q-38 14 -74 14q-41 0 -79 -18q-50 -23 -111 -87q4 5 -75 -94q-3 -4 8 56q12 66 31 147q54 233 110 366q12 26 41 70 q40 58 46 68q23 39 23 66q0 28 -24 46q-123 87 -267 111q19 -28 19 -87q0 -74 -30 -197q-14 -57 -46 -172q-29 -100 -35 -134q-83 -425 -91 -633zM149 305q8 26 27 109q16 72 29 106q37 102 88 189q74 128 138 144q5 1 9 1q44 0 44 -75q0 -20 -3 -45q-14 -110 -81 -282 q-63 -163 -131 -275q-61 -100 -90 -100q-6 0 -11 4q-40 35 -40 105q0 51 21 119z" />
<glyph unicode="c" horiz-adv-x="498" d="M16 520q-16 -82 -16 -157q0 -90 23 -168q54 -187 224 -195h7q105 0 187 156q70 132 88 286q1 6 3 15q2 7 2 10q0 6 -16 10q-9 -13 -57 -90q-45 -72 -77 -117q-102 -145 -163 -158q-57 50 -57 172q0 12 1 24q4 107 40 209q22 62 95 168q80 115 124 132l-42 -148 q64 6 121 84q38 53 38 90q0 18 -9 32q-23 37 -108 101q-68 51 -96 51q-10 0 -15 -7q-39 -61 -94 -122q-80 -89 -82 -92q-86 -106 -121 -286z" />
<glyph unicode="d" horiz-adv-x="759" d="M11 392q-11 -76 -11 -139q0 -132 50 -200q33 -46 82 -46t105 48q46 40 148 247q135 273 135 272q2 4 -22 -72q-35 -111 -52 -197q-20 -96 -20 -162q0 -137 87 -143h12q108 0 190 102q16 20 149 245q11 17 -7 27q-18 9 -30 -7l-110 -161q-60 -98 -99 -98q-7 0 -13 3 q-22 10 -29 43q-2 95 116 584q117 483 178 645q46 120 138 227q13 15 13 25q0 5 -3 8q-8 10 -65 37q-71 33 -112 33h-5q-39 -3 -60 -37q-5 -8 -59 -222q-5 -20 -18 -80q-18 -83 -26 -117q-36 -162 -64 -243q-83 -242 -203 -512q-145 -330 -215 -387q-56 22 -55 124 q0 17 1 37q10 131 82 275q60 119 105 171q62 72 144 86q11 27 11 52q0 94 -157 149q-71 -78 -171 -261q-120 -219 -140 -356z" />
<glyph unicode="e" horiz-adv-x="455" d="M3 392q-3 -35 -3 -68q0 -197 120 -280q63 -44 123 -44q82 0 160 82q96 104 137 258l-49 -29q5 -59 -111 -146q-96 -73 -150 -74q-10 0 -18 3q-51 22 -62 178v7q0 38 28 75q9 10 30 33q21 21 31 34q170 222 197 287q24 62 24 95q0 47 -38 80q-34 29 -61 78q-26 47 -37 56 q-6 5 -14 5q-35 0 -103 -97q-53 -76 -92 -155q-93 -185 -112 -378zM169 393q14 98 77 232q74 154 144 185q-2 -82 -93 -228q-112 -180 -128 -189z" />
<glyph unicode="f" horiz-adv-x="358" d="M-279 -330l53 -83q282 182 344 323q30 68 117 506q87 440 102 476l139 -12q1 4 1 11q0 17 -7 55q-12 57 -25 63q-26 12 -56 12q-10 0 -20 -1q82 447 160 527q1 -29 1 -59q0 -146 -20 -329q-2 -19 10 -46q10 -10 26 -10q21 0 52 18q59 114 119 352q43 171 43 224 q0 18 -5 22l-194 -8l-21 -89q-105 -17 -182 -92t-97 -180l-62 -321l-228 34q-59 -39 -59 -100q0 -22 7 -46l245 -7q-7 -30 -77 -384q-67 -341 -83 -397q-84 -300 -283 -459z" />
<glyph unicode="g" horiz-adv-x="664" d="M-493 -1044q-1 -7 -1 -14q0 -80 98 -121q61 -25 119 -25q29 0 57 6q180 37 363 344q91 154 147 300q59 102 181 528q16 57 41 158q64 66 145 94q62 22 125 91q47 50 47 88q0 22 -16 40l-12 14l-259 -222q145 531 148 544h-179v-12q-10 -23 -18 -116q-7 -72 -47 -122 q-285 -364 -291 -370q-10 9 -10 30q0 70 115 276q106 191 194 314q-4 -6 125 102q20 16 8 35q-14 21 -75 61q-67 43 -105 43q-16 0 -27 -8q-6 -4 -98 -136q-222 -320 -275 -661q-5 -29 -5 -55q0 -72 37 -120q31 -40 74 -40q34 0 75 25q44 26 124 135l78 107q1 -6 1 -12 q0 -50 -38 -175q-10 -33 -44 -62q-9 -9 -31 -25q-21 -17 -31 -26q-80 -70 -222 -219q-492 -513 -518 -794zM-325 -1077q-41 5 -41 57q0 78 91 259q43 86 321 410q268 312 288 318q-33 -145 -237 -676q-60 -154 -159 -256q-110 -114 -231 -114q-16 0 -32 2z" />
<glyph unicode="h" horiz-adv-x="707" d="M-5 70q7 -51 41 -72q19 -12 44 -12q19 0 40 7q12 10 79 234q72 242 86 272q190 405 287 405h3q27 -1 27 -37q0 -28 -16 -76q-10 -30 -109 -266q-131 -313 -131 -490q0 -68 19 -115q21 -52 89 -68q20 -4 38 -4q46 0 83 27q103 78 200 283q5 10 5 21q1 31 -30 40 q-32 10 -50 -16q-19 -27 -58 -91q-42 -68 -59 -92q-37 -54 -54 -54q-12 0 -14 28q-2 24 -1 49q0 222 129 490q147 304 147 405q0 76 -78 76h-6q-65 -1 -155 -46q-144 -70 -263 -338q66 239 272 750q68 170 71 192q1 8 1 15q0 80 -108 112q-37 11 -72 11q-12 0 -23 -1 q-55 -5 -55 -42q0 -9 3 -20q17 -58 17 -91q0 -11 -2 -19q-2 -9 -14 -41q-12 -35 -20 -69q-71 -292 -363 -1357z" />
<glyph unicode="i" horiz-adv-x="247" d="M0 227v-16q0 -134 64 -200q11 -11 26 -11q41 0 110 87q93 119 161 300q3 9 -8 13q-13 6 -15 13q-76 -192 -150 -261q-24 -23 -43 -26q-15 -3 -13 7q95 510 193 702q54 105 54 150q0 20 -11 28q-13 8 -50 7q-34 -1 -52 -1h-15q-47 6 -61 4q-19 -3 -27 -23q-5 -13 -17 -68 q-15 -71 -31 -131q-109 -393 -115 -574zM244 1147l130 -10l113 353l-193 82q-5 -11 -2 -17q-1 1 11 -11q11 -12 11 -37q0 -15 -4 -35q-45 -216 -55 -326z" />
<glyph unicode="j" horiz-adv-x="422" d="M-336 -569v-5q0 -39 27 -51q104 -46 125 -46h2q118 23 301 476q192 477 185 471q8 6 82 59q73 53 122 91q159 122 160 158l-348 -200q35 84 87 282q58 225 83 296q5 14 5 26q0 35 -50 35q-14 0 -31 -3q-35 -5 -72 -19q-34 -13 -37 -21q-2 -3 -43 -246q-43 -249 -58 -301 q-13 -42 -23 -89q-8 -37 -13 -49q-12 -31 -93 -103q-329 -288 -399 -689q-12 -70 -12 -72zM-197 -386q27 88 95 212q63 114 127 200q65 88 88 88h1q2 -56 -129 -347q-126 -278 -170 -278q-4 0 -7 2q-19 11 -19 46q0 30 14 77zM329 1450q-1 -6 -1 -18q0 -15 2 -39 q5 -58 6 -89q1 -89 13 -134q21 -78 80 -78h8q15 33 42 132q27 101 48 150q22 53 22 82q0 18 -9 27q-14 13 -77 13q-15 0 -34 -1q-92 -4 -100 -45z" />
<glyph unicode="k" horiz-adv-x="707" d="M1 165q-1 -14 -1 -27q0 -102 75 -102h8q39 2 50 41l149 589l29 -13q88 -38 128 -234q51 -258 65 -284q68 -135 135 -135q42 0 83 52q84 106 117 319q1 5 1 9q0 18 -17 20q-22 1 -30 -37q-29 -133 -121 -276q-58 17 -89 230q-40 271 -40 270q-5 15 -154 145q39 20 59 43 l247 292q16 19 16 37q0 20 -18 39q-19 20 -40 20q-18 0 -37 -14q-69 -51 -189 -193q-102 -122 -110 -119h-1q11 92 141 448q127 352 179 439q15 25 15 48t-16 43q-26 35 -87 54q-45 14 -87 14q-10 0 -20 -1q-54 -4 -61 -29q-2 -5 2 -43q1 -10 1 -20q0 -27 -8 -52 q-281 -903 -335 -1357q-3 -20 -20 -100q-15 -75 -19 -116z" />
<glyph unicode="l" horiz-adv-x="309" d="M42 629q-42 -207 -42 -346q0 -182 73 -246q42 -37 86 -37q77 0 159 112q103 139 128 276l-43 32q-65 -162 -242 -331q-19 15 -18 78q0 93 40 293q25 122 97 404q40 157 124 384q103 278 132 371q-19 44 -113 84q-35 15 -58 15q-44 0 -45 -52q0 -28 -121 -452 q-131 -462 -157 -585z" />
<glyph unicode="m" horiz-adv-x="1176" d="M-4 139q-2 -14 -2 -27q0 -57 31 -104q6 -11 43 -11q9 0 19 1q46 3 63 9q19 6 52 170q27 134 136 321l207 295q-2 -20 -25 -122q-34 -147 -49 -214q-64 -305 -64 -447v-8l114 -6q26 42 43 131q26 133 38 173q71 249 310 481q-45 -43 -104 -382q-27 -158 -27 -266 q0 -147 50 -200q49 -52 96 -52q100 0 195 233q44 108 81 253q30 119 28 124l-272 -412q-3 33 -3 70q0 111 27 258q36 191 95 322q9 19 58 97q42 67 44 84q-49 70 -162 77q8 0 8 -6q0 -22 -126 -124q-16 -13 -138 -138q-112 -115 -117 -114l129 392q-25 27 -79 27h-15 q-68 -4 -87 -46q-23 -50 -190 -239q-154 -176 -169 -186q45 225 101 355q9 21 21 82q12 57 10 58q-6 4 -17 4q-38 0 -135 -45q-74 -33 -185 -706q-6 -32 -19 -89q-11 -50 -14 -73z" />
<glyph unicode="n" horiz-adv-x="693" d="M5 98q41 -53 107 -92q32 -19 50 -19q24 0 24 32v22q0 155 134 432q128 264 177 287q-164 -476 -164 -707q0 -60 11 -104q14 -55 79 -98q41 -27 75 -27q27 0 51 17q50 36 118 166q30 56 31 81q2 30 -37 8l-142 -159q-33 18 -32 90q0 174 192 665q49 125 49 186 q0 28 -10 42q-25 37 -89 39h-8q-64 0 -96 -47q-170 -257 -257 -324q22 29 65 223q5 22 18 56q15 38 18 49q4 13 4 24q0 31 -30 43q-45 19 -113 30q-25 4 -42 4q-35 0 -35 -17q0 -2 1 -4q6 -25 6 -66q0 -134 -65 -438q-23 -110 -61 -267q-29 -122 -29 -127z" />
<glyph unicode="o" horiz-adv-x="508" d="M22 190q39 -147 161 -182q27 -8 52 -8q95 0 168 111q126 193 125 416q0 62 -9 127q-5 34 -31 126q-28 100 -39 100q-10 0 -48 -35q-34 -32 -38 -45q-3 -14 17 -50q24 -45 27 -57q16 -58 15.5 -128.5t-15.5 -151.5q-29 -150 -94 -266q-35 -62 -71 -62q-11 0 -22 6 q-41 22 -62 105q-12 51 -12 107q0 157 96 356q32 66 98 180q50 87 54 107q4 18 -15 38t-48 28q-17 5 -33 5q-54 0 -95 -57q-88 -123 -145 -281q-58 -163 -58 -312q0 -91 22 -177z" />
<glyph unicode="p" horiz-adv-x="588" d="M-121 -746q32 37 108 385q98 449 96 441q66 242 174 464q118 240 192 256q-4 -21 -117 -330q-106 -289 -103 -353q5 -73 15 -91q17 -31 81 -40q6 -1 12 -1q66 0 130 97q134 204 140 371l-63 -30q-34 -193 -175 -323q20 189 132 463q14 33 48 94q42 77 55 103 q48 99 48 167q0 19 -4 36q-35 16 -69 16q-62 0 -122 -51q-27 -23 -75 -76q-48 -55 -71 -75v6q0 34 43 139q16 38 10 57q-8 25 -52 31q-81 11 -118 11h-11q-34 -2 -39 -18q-2 -7 2 -46q2 -12 2 -23q0 -25 -8 -46q-104 -314 -231 -916q-89 -421 -89 -596q0 -125 45 -125 q7 0 14 3z" />
<glyph unicode="q" horiz-adv-x="735" d="M-1 350q-13 -71 -13 -128q0 -75 22 -125q40 -95 157 -95q13 0 27 1l323 500q-13 -62 -88 -290q-102 -311 -140 -435q-91 -302 -126 -582q-14 -110 -14 -188q0 -169 67 -183q12 -2 25 -2q163 0 337 420q94 226 152 459q2 -3 -24 -9q-28 -6 -28 -7q-33 -98 -187 -368 q-165 -287 -221 -323q-2 3 -2 12q0 93 208 803q221 760 342 1087q-25 37 -54 67q-36 37 -59 37q-14 0 -23 -14q-3 -5 -43 -76q-8 -13 -10 -3q-15 72 -71 119q-66 55 -125 55q-44 0 -85 -31t-153 -196q-141 -208 -194 -505zM159 262q33 240 146 467q96 196 183 196 q34 0 66 -30l28 -69q-115 -212 -226 -389q-147 -235 -186 -235q-13 0 -13 30q0 13 2 30z" />
<glyph unicode="r" horiz-adv-x="427" d="M199 741q-52 -138 -64 -186q-24 -102 -24 -206q0 -94 20 -189q21 -99 61 -140q25 -25 56 -25q26 0 55 17q45 27 115 182q48 104 48 149q0 23 -13 30l-52 -30l-141 -237q-7 5 -7 30q0 58 38 223q55 232 109 362q-140 60 -142 106v2q0 24 29 88q19 41 19 67q0 12 -4 21 q-27 17 -121 17h-21q-51 -1 -59 -10q-2 -2 -2 -10q0 -11 4 -33q5 -24 0 -56q-4 -30 -4 -43q0 -55 100 -129z" />
<glyph unicode="s" horiz-adv-x="546" d="M15 325q35 -204 119 -323q4 -2 10 -2q50 0 201 123q92 75 116 113q24 41 25 94q0 36 -12 77q-28 97 -131 263q-38 61 -48 90q-6 18 -6 34q0 20 10 34q16 22 61 42l23 -94q20 -79 45 -82q6 4 38 95q35 100 48 122q33 56 33 86q0 10 -3 17q-12 23 -92 56q-22 9 -42 9 q-12 0 -24 -3t-11 -14q3 -24 2 -30q-3 -18 -20 -138q-23 23 -97 33q-22 3 -39 3q-43 0 -55 -18q-27 -39 -27 -86q0 -55 37 -122q20 -35 67 -101q45 -64 60 -92q43 -81 43 -158q0 -42 -13 -84q-12 -43 -50 -109q-45 -79 -73 -87q-61 45 -80 201q0 3 -1 11q0 36 9 168 q3 46 3 79q0 61 -11 73q-32 34 -50 44q-32 19 -49 -14q-31 -60 -31 -157q0 -67 15 -153z" />
<glyph unicode="t" horiz-adv-x="384" d="M-206 1095l438 64q-11 -60 -144 -504q-86 -290 -86 -473q0 -19 1 -37q7 -107 6 -105q12 -37 88 -53q11 -2 21 -2q39 0 71 31q25 25 63 96q177 326 177 403q0 10 -3 16l-12 -6q-24 -12 -34 -37q-66 -116 -128 -211q-81 -123 -104 -123q-9 0 -9 20q0 7 1 17q21 161 123 547 q103 390 138 434q171 3 312 32q213 43 213 127q0 5 -1 11l-1 15l-463 -39q2 10 90 212q28 65 29 100q0 44 -43 52q-35 6 -138 29q-18 4 -27.5 4t-10.5 -4q0 1 5 -44q2 -15 2 -31q0 -35 -9 -73q-24 -104 -67 -225q-113 -13 -171 -15h-66q-53 -1 -89 -3q-112 -7 -131 -38 q-26 -41 -41 -101q-12 -20 -12 -37q0 -18 14 -33z" />
<glyph unicode="u" horiz-adv-x="716" d="M28 348q-24 -120 -24 -194q0 -77 26 -105q36 -37 86 -54q23 -7 43 -7q28 0 50 15q108 77 271 376q6 11 -1 -11q-13 -44 -20 -79q-17 -76 -17 -140q0 -60 15 -109q13 -44 66 -58q17 -5 33 -5q32 0 55 21q43 38 106 204q55 145 55 196q0 6 -1 11l-5 -3q-56 -30 -82 -89 l-84 -185q-5 15 -6 44q0 106 78 396q-1 -3 28 85q22 67 28 110q3 19 3 34q0 70 -56 70q-18 0 -42 -7q-17 -28 -90 -225q-36 -97 -102 -181q-256 -330 -261 -332q-1 5 -1 13q0 90 132 532q49 166 49 237q0 11 -1 20q-16 122 -197 131q0 5 25 -44q5 -10 5 -28q0 -40 -26 -117 q-18 -54 -58 -206q-70 -268 -80 -316z" />
<glyph unicode="v" horiz-adv-x="455" d="M4 418q-2 -81 -2 -137q0 -84 4 -112q21 -167 115 -169h2q61 0 127 136q13 27 112 255q103 237 133 300q5 11 45 89q27 52 42 93q6 17 6 28q0 29 -37 30q-12 0 -28 -3q-65 -11 -93 -31q-36 -25 -49 -95q-3 -20 -6 -55t-5 -46q-12 -66 -96 -282q-85 -221 -128 -291 q5 22 7 109q2 96 5 125q37 307 173 625q-34 45 -156 45q-25 0 -54 -2q-48 -3 -50 -17q0 -3 16 -36q1 -3 1 -10q0 -39 -35 -205q-48 -229 -49 -344z" />
<glyph unicode="w" horiz-adv-x="989" d="M11 68q2 -57 59 -74q17 -5 32 -5q35 0 63 25q40 36 139 279q28 68 77 194q45 116 60 151v1q2 0 -11 -104q-21 -166 -31 -263q-18 -175 -18 -278q0 -130 29 -143q40 -19 71 -19q23 0 41 10q38 19 75 90q3 6 74 163q55 121 111 211q11 17 157 274q124 218 158 258 q54 65 54 113q0 20 -9 36q-29 53 -142 68h-5q-66 0 -154 -254q-56 -162 -173 -398q-103 -208 -109 -206l100 695q4 28 -17 47l-189 -26l-254 -587q10 55 84 292q69 218 75 294q1 7 0 14q0 54 -41 77q-30 15 -108 22q-8 1 -15 1q-47 0 -91 -27q-27 -16 -5 -25q38 -17 43 -23 q1 -7 1 -21q0 -83 -60 -391q-71 -367 -71 -466v-5z" />
<glyph unicode="x" horiz-adv-x="745" d="M-38 23q12 -30 12 -28l363 381q13 -13 82 -130q61 -105 145 -164q69 -48 122 -48q41 0 71 29q48 46 48 116q0 14 -2 30q-2 8 -8 16q-7 7 -9 1q-26 -86 -100 -120q-90 48 -162 193q-27 52 -49 129q-17 61 -17 58q0 4 34 55q75 114 203 245q113 115 113 113q-12 28 -116 28 h-27q-68 -2 -79 -9q-12 -7 -31 -60l-159 -252q-21 51 -43 239q-17 152 -54 166q-26 10 -59 10q-52 0 -121 -25q-13 -5 -37 -36q-24 -32 -10 -27q24 8 46 7.5t40 -7.5q1 -2 34 -131q34 -135 41 -156q44 -128 56 -166q-271 -322 -321 -410q-9 -16 -9 -31q0 -8 3 -16z" />
<glyph unicode="y" horiz-adv-x="693" d="M-449 -1385q36 -43 168 -47h25q100 0 163 22q94 34 231 227q50 70 145 315q92 238 108 331q22 126 107 415q174 151 231 227q18 24 95 166q14 27 14 42q0 18 -33 -10q-163 -138 -290 -273q12 149 191 809q6 20 25 75q14 43 17 63q1 7 1 13q0 47 -63 48h-4q-82 0 -105 -44 q-8 -16 -17 -54q-12 -47 -20 -72q-20 -56 -100 -214q-174 -344 -241 -387l130 610q-32 37 -99 46q-12 2 -22 2q-51 0 -63 -37q-138 -606 -138 -776q0 -41 8 -57q25 -49 75 -63q13 -4 25 -4q39 0 66 37q215 294 215 309q0 1 -1 1q2 -7 -39 -203q-42 -199 -52 -218 q-5 -11 -95 -78q-123 -91 -199 -154q-295 -247 -377 -459q-41 -107 -68 -302q-18 -134 -18 -228q0 -43 4 -78zM-304 -1071q45 270 134 397q120 174 497 444q-27 -217 -104 -457q-153 -480 -399 -600q-38 -18 -65 -18q-42 0 -60 42q-13 31 -13 84q0 46 10 108z" />
<glyph unicode="z" horiz-adv-x="594" d="M-468 -735q-5 -22 -5 -44q0 -92 93 -197q97 -109 182 -109q15 0 29 3q150 34 246 117q149 129 258 394q94 226 94 389q0 23 -2 44q-8 100 -49 217q18 9 114 55q104 50 167 82q1 7 1 13q0 27 -20 53l-9 21l-297 -155l-160 193q267 150 448 356q46 52 46 120q0 20 -4 42 q-16 84 -71 122q-10 7 -27 7q-27 0 -71 -18q-109 -45 -111 -45q-28 -7 -186 -10q-102 -2 -102 -20q0 -3 3 -6q42 -56 150 -56q28 0 60 4q112 13 234 62q-22 -51 -98 -138q-151 -172 -421 -348q-18 -12 -18 -44q0 -20 7 -48q16 -68 39 -88q46 -40 105 -209 q-362 -275 -474 -444q-114 -170 -151 -315zM-352 -744q29 143 123 287q33 49 199 215q167 168 214 195q6 0 6 -68q0 -38 -2 -97q-6 -188 -48 -305q-34 -95 -147 -291q-48 -83 -86 -114q-47 -37 -117 -37q-10 0 -20 1q-130 10 -130 141q0 33 8 73z" />
<glyph unicode="{" />
<glyph unicode="|" />
<glyph unicode="}" />
<glyph unicode="~" />
<glyph unicode="&#xa1;" horiz-adv-x="672" />
<glyph unicode="&#xa2;" horiz-adv-x="1139" />
<glyph unicode="&#xa3;" />
<glyph unicode="&#xa4;" />
<glyph unicode="&#xa5;" horiz-adv-x="1262" />
<glyph unicode="&#xa6;" />
<glyph unicode="&#xa7;" />
<glyph unicode="&#xa8;" horiz-adv-x="1024" />
<glyph unicode="&#xa9;" horiz-adv-x="1674" />
<glyph unicode="&#xaa;" horiz-adv-x="648" />
<glyph unicode="&#xab;" horiz-adv-x="944" />
<glyph unicode="&#xac;" />
<glyph unicode="&#xad;" horiz-adv-x="670" />
<glyph unicode="&#xae;" horiz-adv-x="1674" />
<glyph unicode="&#xaf;" horiz-adv-x="670" />
<glyph unicode="&#xb0;" horiz-adv-x="674" />
<glyph unicode="&#xb1;" />
<glyph unicode="&#xb2;" />
<glyph unicode="&#xb3;" />
<glyph unicode="&#xb4;" horiz-adv-x="1024" />
<glyph unicode="&#xb5;" horiz-adv-x="1180" />
<glyph unicode="&#xb6;" horiz-adv-x="1024" />
<glyph unicode="&#xb7;" horiz-adv-x="508" />
<glyph unicode="&#xb8;" horiz-adv-x="1024" />
<glyph unicode="&#xb9;" />
<glyph unicode="&#xba;" horiz-adv-x="718" />
<glyph unicode="&#xbb;" horiz-adv-x="944" />
<glyph unicode="&#xbc;" horiz-adv-x="1708" />
<glyph unicode="&#xbd;" horiz-adv-x="1964" />
<glyph unicode="&#xbe;" horiz-adv-x="1708" />
<glyph unicode="&#xbf;" horiz-adv-x="748" />
<glyph unicode="&#xc0;" horiz-adv-x="1540" />
<glyph unicode="&#xc1;" horiz-adv-x="1540" />
<glyph unicode="&#xc2;" horiz-adv-x="1540" />
<glyph unicode="&#xc3;" horiz-adv-x="1540" />
<glyph unicode="&#xc4;" horiz-adv-x="1540" />
<glyph unicode="&#xc5;" horiz-adv-x="1540" />
<glyph unicode="&#xc6;" horiz-adv-x="2118" />
<glyph unicode="&#xc7;" horiz-adv-x="1399" />
<glyph unicode="&#xc8;" horiz-adv-x="1151" />
<glyph unicode="&#xc9;" horiz-adv-x="1151" />
<glyph unicode="&#xca;" horiz-adv-x="1151" />
<glyph unicode="&#xcb;" horiz-adv-x="1151" />
<glyph unicode="&#xcc;" horiz-adv-x="657" />
<glyph unicode="&#xcd;" horiz-adv-x="657" />
<glyph unicode="&#xce;" horiz-adv-x="657" />
<glyph unicode="&#xcf;" horiz-adv-x="657" />
<glyph unicode="&#xd0;" horiz-adv-x="1518" />
<glyph unicode="&#xd1;" horiz-adv-x="1554" />
<glyph unicode="&#xd2;" horiz-adv-x="1614" />
<glyph unicode="&#xd3;" horiz-adv-x="1614" />
<glyph unicode="&#xd4;" horiz-adv-x="1614" />
<glyph unicode="&#xd5;" horiz-adv-x="1614" />
<glyph unicode="&#xd6;" horiz-adv-x="1614" />
<glyph unicode="&#xd7;" />
<glyph unicode="&#xd8;" horiz-adv-x="1614" />
<glyph unicode="&#xd9;" horiz-adv-x="1501" />
<glyph unicode="&#xda;" horiz-adv-x="1501" />
<glyph unicode="&#xdb;" horiz-adv-x="1501" />
<glyph unicode="&#xdc;" horiz-adv-x="1501" />
<glyph unicode="&#xdd;" horiz-adv-x="1233" />
<glyph unicode="&#xde;" horiz-adv-x="1120" />
<glyph unicode="&#xdf;" horiz-adv-x="1251" />
<glyph unicode="&#xe0;" horiz-adv-x="922" />
<glyph unicode="&#xe1;" horiz-adv-x="922" />
<glyph unicode="&#xe2;" horiz-adv-x="922" />
<glyph unicode="&#xe3;" horiz-adv-x="922" />
<glyph unicode="&#xe4;" horiz-adv-x="922" />
<glyph unicode="&#xe5;" horiz-adv-x="922" />
<glyph unicode="&#xe6;" horiz-adv-x="1454" />
<glyph unicode="&#xe7;" horiz-adv-x="905" />
<glyph unicode="&#xe8;" horiz-adv-x="909" />
<glyph unicode="&#xe9;" horiz-adv-x="909" />
<glyph unicode="&#xea;" horiz-adv-x="909" />
<glyph unicode="&#xeb;" horiz-adv-x="909" />
<glyph unicode="&#xec;" horiz-adv-x="514" />
<glyph unicode="&#xed;" horiz-adv-x="514" />
<glyph unicode="&#xee;" horiz-adv-x="514" />
<glyph unicode="&#xef;" horiz-adv-x="514" />
<glyph unicode="&#xf0;" horiz-adv-x="1139" />
<glyph unicode="&#xf1;" horiz-adv-x="1108" />
<glyph unicode="&#xf2;" horiz-adv-x="1010" />
<glyph unicode="&#xf3;" horiz-adv-x="1010" />
<glyph unicode="&#xf4;" horiz-adv-x="1010" />
<glyph unicode="&#xf5;" horiz-adv-x="1010" />
<glyph unicode="&#xf6;" horiz-adv-x="1010" />
<glyph unicode="&#xf7;" />
<glyph unicode="&#xf8;" horiz-adv-x="1010" />
<glyph unicode="&#xf9;" horiz-adv-x="1059" />
<glyph unicode="&#xfa;" horiz-adv-x="1059" />
<glyph unicode="&#xfb;" horiz-adv-x="1059" />
<glyph unicode="&#xfc;" horiz-adv-x="1059" />
<glyph unicode="&#xfd;" horiz-adv-x="868" />
<glyph unicode="&#xfe;" horiz-adv-x="1010" />
<glyph unicode="&#xff;" horiz-adv-x="868" />
<glyph unicode="&#x2c6;" horiz-adv-x="1024" />
<glyph unicode="&#x2dc;" horiz-adv-x="1024" />
<glyph unicode="&#x2000;" horiz-adv-x="1956" />
<glyph unicode="&#x2001;" horiz-adv-x="3912" />
<glyph unicode="&#x2002;" horiz-adv-x="1956" />
<glyph unicode="&#x2003;" horiz-adv-x="3912" />
<glyph unicode="&#x2004;" horiz-adv-x="1304" />
<glyph unicode="&#x2005;" horiz-adv-x="978" />
<glyph unicode="&#x2006;" horiz-adv-x="652" />
<glyph unicode="&#x2007;" horiz-adv-x="652" />
<glyph unicode="&#x2008;" horiz-adv-x="489" />
<glyph unicode="&#x2009;" horiz-adv-x="782" />
<glyph unicode="&#x200a;" horiz-adv-x="217" />
<glyph unicode="&#x2010;" horiz-adv-x="670" />
<glyph unicode="&#x2011;" horiz-adv-x="670" />
<glyph unicode="&#x2012;" horiz-adv-x="670" />
<glyph unicode="&#x2013;" horiz-adv-x="1108" />
<glyph unicode="&#x2014;" horiz-adv-x="2048" />
<glyph unicode="&#x2018;" horiz-adv-x="557" />
<glyph unicode="&#x2019;" horiz-adv-x="557" />
<glyph unicode="&#x201a;" horiz-adv-x="557" />
<glyph unicode="&#x201c;" horiz-adv-x="910" />
<glyph unicode="&#x201d;" horiz-adv-x="910" />
<glyph unicode="&#x201e;" horiz-adv-x="910" />
<glyph unicode="&#x2022;" horiz-adv-x="1024" />
<glyph unicode="&#x2026;" horiz-adv-x="2048" />
<glyph unicode="&#x202f;" horiz-adv-x="782" />
<glyph unicode="&#x2039;" horiz-adv-x="631" />
<glyph unicode="&#x203a;" horiz-adv-x="631" />
<glyph unicode="&#x205f;" horiz-adv-x="978" />
<glyph unicode="&#x20ac;" />
<glyph unicode="&#x2122;" horiz-adv-x="1497" />
<glyph unicode="&#x25fc;" horiz-adv-x="1020" d="M0 0v1020h1020v-1020h-1020z" />
</font>
</defs>
</svg>
